LEWI.RU

Сегодня:
Карта сайта Контакты Главная
Скрыть рекламный блок

Календарь

Архив новостей

Декабрь 2017 (869)
Ноябрь 2017 (1979)
Октябрь 2017 (1975)
Сентябрь 2017 (1837)
Август 2017 (2055)
Июль 2017 (2158)

Реклама

Наши партнеры

Авторизация

Опрос

Каким интернетом вы пользуетесь ? [Все опросы]


Счетчики


Реклама

Наши партнеры

НОВЫЕ ОБНОВЛЕНИЯ НА САЙТЕ !!!

ВНИМАНИЕ !!! ОБЪЯВЛЕНИЕ !!!

БОЛЕЕ 600 ОНЛАЙН ИГР НА ЛЮБОЙ ВКУС ! МНОЖЕСТВО КАТЕГОРИЙ ! ВОЗМОЖНОСТЬ СКАЧАТЬ ИЛИ ДОБАВИТЬ В ПОПУЛЯРНЫЕ СОЦИАЛЬНЫЕ СЕТИ ОДНОКЛАССНИКИ, ВКОНТАКТЕ, FACEBOOK...!

==>>> ПЕРЕЙТИ К ИГРАМ
Раздел: Музыка

Скачать Jane - Age Of Madness (1978) Reissue 1997

АвторАвтор: pacocan | ДатаДата: 20 октября 2013
Jane - Age Of Madness (1978) Reissue 1997

Jane - Age Of Madness (1978) [Reissue 1997]
EAC Rip | FLAC (IMG+CUE+LOG) | 244 MB | Complete HQ Scans 600 dpi JPG included | MP3 Lame 320 CBR | 85 MB
Genre: Progressive Rock / Krautrock | RAR 5% Rec. | Label: Repertoire (PMS 7047-WP) |

"Seventh studio album from the Hanover Krautrockers Jane. The most distinctive quality of Age of Madness is its crawling, slowly building crescendo of rolling rhythms that make this album more Pink Floydian than the group's other releases. Though not as bluesy as Together or as Allman-like as Fire, Water, Earth & Air, I think any Jane fan will love the rich textures of Age of Madness. This is just another or those really great albums that has been consistently high-priced and difficult to find since its release. Will apeal to guitar fans everywhere, Zeppelin, Purple and more..."

Jane - Age Of Madness (1978) Reissue 1997
Tracklist:

01. Age Of Madness 05:48
02. Memory Symphony 04:29
03. Auroville 03:43
04. Lovesong 03:56
05. Bad Game 05:14
06. Get This Power 02:45
07. With The Smile 04:24
08. Meadow 03:27
09. Age of Madness (Part II) 02:43

Total: 36:30

Exact Audio Copy V1.0 beta 3 from 29. August 2011

EAC extraction logfile from 1. September 2013, 15:03

Jane / Age Of Madness

Used drive : HL-DT-STDVDRAM GT34N Adapter: 0 ID: 2

Read mode : Secure
Utilize accurate stream : Yes
Defeat audio cache : Yes
Make use of C2 pointers : No

Read offset correction : 103
Overread into Lead-In and Lead-Out : No
Fill up missing offset samples with silence : Yes
Delete leading and trailing silent blocks : No
Null samples used in CRC calculations : Yes
Used interface : Native Win32 interface for Win NT & 2000

Used output format : User Defined Encoder
Selected bitrate : 896 kBit/s
Quality : High
Add ID3 tag : Yes
Command line compressor : C:\Program Files (x86)\Exact Audio Copy\FLAC\FLAC.EXE
Additional command line options : -6 -V -T "ARTIST=%artist%" -T "TITLE=%title%" -T "ALBUM=%albumtitle%" -T "DATE=%year%" -T "TRACKNUMBER=%tracknr%" -T "GENRE=%genre%" -T "COMMENT=%comment%" -T "BAND=%albuminterpret%" -T "ALBUMARTIST=%albuminterpret%" -T "COMPOSER=%composer%" %haslyrics%--tag-from-file=LYRICS="%lyricsfile%"%haslyrics% -T "DISCNUMBER=%cdnumber%" -T "TOTALDISCS=%totalcds%" -T "TOTALTRACKS=%numtracks%" %hascover%--picture="%coverfile%"%hascover% %source% -o %dest%

TOC of the extracted CD

Track | Start | Length | Start sector | End sector
---------------------------------------------------------
1 | 0:00.00 | 5:48.32 | 0 | 26131
2 | 5:48.32 | 4:28.65 | 26132 | 46296
3 | 10:17.22 | 3:42.53 | 46297 | 62999
4 | 14:00.00 | 3:55.52 | 63000 | 80676
5 | 17:55.52 | 5:13.53 | 80677 | 104204
6 | 23:09.30 | 2:44.70 | 104205 | 116574
7 | 25:54.25 | 4:24.20 | 116575 | 136394
8 | 30:18.45 | 3:28.47 | 136395 | 152041
9 | 33:47.17 | 2:42.58 | 152042 | 164249

Range status and errors

Selected range

Filename F:\FLAC\FLAC S\Jane - Age Of Madness\Jane - Age Of Madness.wav

Peak level 98.4 %
Extraction speed 1.9 X
Range quality 100.0 %
Test CRC 74BC1D49
Copy CRC 74BC1D49
Copy OK

No errors occurred


AccurateRip summary

Track 1 cannot be verified as accurate (confidence 5) [8A07DF41], AccurateRip returned [D2982AFE] (AR v2)
Track 2 cannot be verified as accurate (confidence 5) [96451809], AccurateRip returned [ABF6F259] (AR v2)
Track 3 cannot be verified as accurate (confidence 5) [454DAD3F], AccurateRip returned [E0BC471F] (AR v2)
Track 4 cannot be verified as accurate (confidence 5) [57F15AEE], AccurateRip returned [BB90BC0D] (AR v2)
Track 5 cannot be verified as accurate (confidence 5) [D9BB19A4], AccurateRip returned [57CE13FC] (AR v2)
Track 6 cannot be verified as accurate (confidence 5) [48E237C5], AccurateRip returned [466B938C] (AR v2)
Track 7 cannot be verified as accurate (confidence 5) [453F1BE5], AccurateRip returned [7E86DAED] (AR v2)
Track 8 cannot be verified as accurate (confidence 5) [223FF6E6], AccurateRip returned [FE6E7369] (AR v2)
Track 9 cannot be verified as accurate (confidence 5) [7B4B38A8], AccurateRip returned [21A8B8BB] (AR v2)

No tracks could be verified as accurate
You may have a different pressing from the one(s) in the database

End of status report

==== Log checksum 903A5FFDB431A55DE8D8421FC950A85B90A0DD5F1DE390576CBD8748DA44635A ====

foobar2000 1.1.9 / Dynamic Range Meter 1.1.1
log date: 2013-10-10 11:51:56

--------------------------------------------------------------------------------
Analyzed: Jane / Age Of Madness
--------------------------------------------------------------------------------

DR Peak RMS Duration Track
--------------------------------------------------------------------------------
DR8 -0.14 dB -11.17 dB 5:48 01-Age Of Madness
DR10 -0.14 dB -11.80 dB 4:29 02-Memory Symphony
DR7 -0.63 dB -9.27 dB 3:43 03-Auroville
DR7 -0.65 dB -9.34 dB 3:56 04-Love Song
DR7 -0.14 dB -8.76 dB 5:14 05-Bad Game
DR9 -0.14 dB -9.89 dB 2:45 06-Get This Power
DR9 -0.14 dB -9.66 dB 4:24 07-With Her Smile
DR9 -0.45 dB -11.41 dB 3:29 08-Meadow
DR7 -0.14 dB -8.30 dB 2:43 09-Age Of Madness (Part II)
--------------------------------------------------------------------------------

Number of tracks: 9
Official DR value: DR8

Samplerate: 44100 Hz
Channels: 2
Bits per sample: 16
Bitrate: 881 kbps
Codec: FLAC


Jane - Age Of Madness (1978) Reissue 1997

This CD is from my personal collection. My original rip & my scan work.

FLAC + HQ 600 dpi complete scans:

MP3 + 300 dpi front/back cover scans:

Password: Ant

Download link:


http://megafilegarden.com/d/9363a40323w203f42684/ybqh9.Je78AOMsF.rar 
http://uploaded.net/file/vr1q5q51/ybqh9.Je78AOMsF.rar

http://megafilegarden.com/d/9363a403231313742081/ybqh9.Je78AOMsM.rar 
http://uploaded.net/file/xejd5518/ybqh9.Je78AOMsM.rar

[related-news]

Другие новости на эту тему:

    {related-news}
[/related-news]

Теги к статье:

Уважаемый посетитель, Вы зашли на сайт как незарегистрированный пользователь. Мы рекомендуем Вам зарегистрироваться либо войти на сайт под своим именем.

Информация

Посетители, находящиеся в группе Гости, не могут оставлять комментарии к данной публикации.
Посетителям:
Здесь вы можете скачать бесплатно, без регистрации и смс программы, игры, windows, музыку, софт, Русскую рыбалку, взлом и секреты одноклассников и вконтакте, книги, Total Commander, Yasu, скрипты, скачать ключи к kaspersky и drweb, crack, photoshop, трейнеры и nocd для игр, и многое другое. Играть во флеш игры онлайн. На сайте представлено множество полезной информации.
Welcome to our site. Here you will not find the information on cars and motorcycles, currencies and quotations of securities, the real estate, insurance, the medical, political, financial, legal and other information which are not concerning a software and the multimedia data. For us you can find and download free of charge, without what or registrations - the newest films, fresh music in format MP3, flash games, breaking and the secrets of my classmates and VKontakte, novelties of games for PC and the consoles, interesting and beneficial programs and utilities as from eminent manufacturers of a software, and to anybody unknown programmers. You can always download under links from our site of Windows XP, Vista, Windows 7 Seven, Microsoft Office with the newest upgrades, Adobe Photoshop, 3D Studio Max, AutoCAD, Total Commander, Kaspersky Anti Virus, Kaspersky Internet Security, DrWEB and other known antiviruses, wall-paper for a desktop, e-books, scripts for web designers, trainers, Nocd, cracks and keygens to programs, serial keys and many other things.
Правообладателям:
Все материалы найдены на просторах сети интернет как свободно распространяемые и выложены исключительно в ознакомительных целях. Если вы являетесь законным правообладателем какого либо продукта и против его размещения на данном сайте, сообщите нам и мы немедленно удалим данный материал. Администрация сайта не несет ответственности за действия посетителей, нарушающих авторские права.
All materials are found on open spaces of a network the Internet as freely extended and laid out exclusively in the fact-finding purposes. If you are what lawful legal owner or a product and against its placing on the given site, inform us and we will immediately remove the given material. The administration of a site does not bear responsibility for actions of the visitors breaking copyrights.