LEWI.RU

Сегодня:
Карта сайта Контакты Главная
Скрыть рекламный блок

Календарь

Архив новостей

Февраль 2017 (2108)
Январь 2017 (3036)
Декабрь 2016 (2378)
Ноябрь 2016 (3265)
Октябрь 2016 (3178)
Сентябрь 2016 (3210)

Реклама

Наши партнеры

Авторизация

Опрос

Каким интернетом вы пользуетесь ? [Все опросы]


Счетчики


Реклама

Наши партнеры

НОВЫЕ ОБНОВЛЕНИЯ НА САЙТЕ !!!

ВНИМАНИЕ !!! ОБЪЯВЛЕНИЕ !!!

БОЛЕЕ 600 ОНЛАЙН ИГР НА ЛЮБОЙ ВКУС ! МНОЖЕСТВО КАТЕГОРИЙ ! ВОЗМОЖНОСТЬ СКАЧАТЬ ИЛИ ДОБАВИТЬ В ПОПУЛЯРНЫЕ СОЦИАЛЬНЫЕ СЕТИ ОДНОКЛАССНИКИ, ВКОНТАКТЕ, FACEBOOK...!

==>>> ПЕРЕЙТИ К ИГРАМ
Раздел: Музыка

Скачать Aerosmith - Heart Radio Music Festival (2012) [HDTVRip 1080i]

АвторАвтор: gorodoksmol | ДатаДата: 10 августа 2015
Aerosmith - Heart Radio Music Festival (2012) [HDTVRip 1080i]


Artist: Aerosmith
Album: Heart Radio Music Festival
Released: 2012
Genre: Rock, Hard rock
Country: USA
Duration: 00:34:14

Quality: HDTVRip
Video: AVC MPEG-4 , 1920x1080px at 29970 fps, 33900 kbps avg
Audio#1: MPEG Audio, 2 ch, 384.00 kbps avg
Subtitles: none
Size: 8.71 GB

Tracklisting:
01. Love in an Elevator
02. Oh Yeah
03. Cryin'
04. Sweet Emotion
05. Dream On
06. Mother Popcorn (James Brown cover)
07. Walk This Way

Aerosmith - Heart Radio Music Festival (2012) [HDTVRip 1080i] Aerosmith - Heart Radio Music Festival (2012) [HDTVRip 1080i] Aerosmith - Heart Radio Music Festival (2012) [HDTVRip 1080i] Aerosmith - Heart Radio Music Festival (2012) [HDTVRip 1080i]


Log MediaInfo
Общее
Идентификатор : 1 (0x1)
Полное имя : /Users/a-boutov/Torrent скачал-раздача/Раздача на Lossless/Aerosmith.HeartRadio.Music.Festival.2012.1080i.HDTV/Aerosmith.HeartRadio.Music.Festival.2012.1080i.HDTV 35.ts
Формат : MPEG-TS
Размер файла : 8,71 Гбайт
Продолжительность : 34 м.
Режим общего битрейта : Переменный
Общий поток : 36,4 Мбит/сек

Видео
Идентификатор : 308 (0x134)
Идентификатор меню : 1 (0x1)
Формат : AVC
Формат/Информация : Advanced Video Codec
Профиль формата : High@L4.1
Параметр CABAC формата : Да
Параметр ReFrames формата : 4 кадра
Идентификатор кодека : 27
Продолжительность : 34 м.
Битрейт : 33,9 Мбит/сек
Ширина : 1920 пикселей
Высота : 1080 пикселей
Соотношение сторон : 16:9
Частота кадров : 29,970 кадров/сек
Цветовое пространство : YUV
Субдискретизация насыщенности : 4:2:0
Битовая глубина : 8 бит
Тип развёртки : Чересстрочная
Порядок развёртки : Верхнее поле первое
Бит/(Пиксели*Кадры) : 0.545
Размер потока : 8,10 Гбайт (93%)
Основные цвета : BT.709
Характеристики трансфера : BT.709
Коэффициенты матрицы : BT.709

Аудио #1
Идентификатор : 256 (0x100)
Идентификатор меню : 1 (0x1)
Формат : MPEG Audio
Версия формата : Version 1
Профиль формата : Layer 2
Идентификатор кодека : 3
Продолжительность : 34 м.
Вид битрейта : Постоянный
Битрейт : 384 Кбит/сек
Каналы : 2 канала
Частота : 48,0 КГц
Метод сжатия : С потерями
Размер потока : 94,1 Мбайт (1%)
Язык : English

Аудио #2
Идентификатор : 257 (0x101)
Идентификатор меню : 1 (0x1)
Формат : MPEG Audio
Версия формата : Version 1
Профиль формата : Layer 2
Идентификатор кодека : 3
Продолжительность : 34 м.
Вид битрейта : Постоянный
Битрейт : 384 Кбит/сек
Каналы : 2 канала
Частота : 48,0 КГц
Метод сжатия : С потерями
Размер потока : 94,0 Мбайт (1%)
Язык : English


Скачать:

[related-news]

Другие новости на эту тему:

    {related-news}
[/related-news]

Теги к статье:

Aerosmith, Rock, Hard rock, 2012, HDTVRip 1080i
Уважаемый посетитель, Вы зашли на сайт как незарегистрированный пользователь. Мы рекомендуем Вам зарегистрироваться либо войти на сайт под своим именем.

Информация

Посетители, находящиеся в группе Гости, не могут оставлять комментарии к данной публикации.
Посетителям:
Здесь вы можете скачать бесплатно, без регистрации и смс программы, игры, windows, музыку, софт, Русскую рыбалку, взлом и секреты одноклассников и вконтакте, книги, Total Commander, Yasu, скрипты, скачать ключи к kaspersky и drweb, crack, photoshop, трейнеры и nocd для игр, и многое другое. Играть во флеш игры онлайн. На сайте представлено множество полезной информации.
Welcome to our site. Here you will not find the information on cars and motorcycles, currencies and quotations of securities, the real estate, insurance, the medical, political, financial, legal and other information which are not concerning a software and the multimedia data. For us you can find and download free of charge, without what or registrations - the newest films, fresh music in format MP3, flash games, breaking and the secrets of my classmates and VKontakte, novelties of games for PC and the consoles, interesting and beneficial programs and utilities as from eminent manufacturers of a software, and to anybody unknown programmers. You can always download under links from our site of Windows XP, Vista, Windows 7 Seven, Microsoft Office with the newest upgrades, Adobe Photoshop, 3D Studio Max, AutoCAD, Total Commander, Kaspersky Anti Virus, Kaspersky Internet Security, DrWEB and other known antiviruses, wall-paper for a desktop, e-books, scripts for web designers, trainers, Nocd, cracks and keygens to programs, serial keys and many other things.
Правообладателям:
Все материалы найдены на просторах сети интернет как свободно распространяемые и выложены исключительно в ознакомительных целях. Если вы являетесь законным правообладателем какого либо продукта и против его размещения на данном сайте, сообщите нам и мы немедленно удалим данный материал. Администрация сайта не несет ответственности за действия посетителей, нарушающих авторские права.
All materials are found on open spaces of a network the Internet as freely extended and laid out exclusively in the fact-finding purposes. If you are what lawful legal owner or a product and against its placing on the given site, inform us and we will immediately remove the given material. The administration of a site does not bear responsibility for actions of the visitors breaking copyrights.